#TITLE:Rainbow Rainbow;
#SUBTITLE:~Dinamo original~;
#ARTIST:Ryu*;
#TITLETRANSLIT:;
#SUBTITLETRANSLIT:;
#ARTISTTRANSLIT:;
#CREDIT:;
#BANNER:rainbow rainbow -banner-.png;
#BACKGROUND:RR.png;
#LYRICSPATH:;
#CDTITLE:dinamo.png;
#MUSIC:134.rainbow_rainbow.mp3;
#OFFSET:-0.445;
#SAMPLESTART:87.240;
#SAMPLELENGTH:12.000;
#SELECTABLE:YES;
#BPMS:0.000=177.000;
#STOPS:;
#BGCHANGES:;
// cache tags:
#FIRSTBEAT:0.000;
#LASTBEAT:327.750;
#SONGFILENAME:Songs/Chilean Keyboard Megapack 3/(Dinamo) Rainbow Rainbow/rainbow rainbow.sm;
#HASMUSIC:1;
#HASBANNER:1;
#MUSICLENGTH:117.133;
// end cache tags

//---------------dance-single - ----------------
#NOTES:
     dance-single:
     :
     Challenge:
     11:
     1.000,1.000,1.000,0.162,1.000,877.000,164.000,19.000,0.000,4.000:
1000
0100
0001
0000
0001
0100
1000
0000
0220
0000
0000
0000
0000
0000
0000
0330
,
1100
0100
0011
0100
0110
1000
1100
0100
,
0110
0001
1001
0100
1001
0110
1100
0011
,
0100
1100
0010
0011
0100
0011
0100
1100
,
1100
0110
0110
1001
1001
0011
0011
0110
,
0100
0011
0001
1100
0010
0101
0001
1100
,
0001
0011
0100
0110
0100
1001
0011
1100
,
1001
0100
0011
1000
0110
0100
1001
0100
,
0110
0001
1100
0000
1100
1100
0011
0000
,
1000
0100
0010
0000
0010
0100
1000
0000
0001
0100
0001
0000
0100
0001
1000
0000
,
0100
0010
0100
0001
1000
0100
0010
0100
1000
0100
0010
0001
1000
0100
1000
0000
,
0001
0100
0010
0000
1000
0001
1000
0000
0010
0100
0010
0000
0010
0100
1000
0000
,
0001
0100
0010
0001
0010
0100
0010
0001
1000
0001
0100
0001
0010
0100
1000
0001
,
0100
0001
1000
0000
0010
0001
0100
0000
1000
0001
0100
0000
0001
1000
0100
0000
,
0001
1000
0100
0010
0100
0010
0001
0100
1000
0100
0010
1000
0001
0010
0100
1000
,
0001
0100
0001
0100
0010
0100
1000
0100
0010
1000
0001
0010
0002
0000
0000
0003
,
1010
1100
0110
0011
1100
0110
0011
0000
,
0101
1010
0101
0110
1010
0101
1001
0000
,
1100
0110
0011
0000
0011
1100
0110
0000
,
1001
0000
1000
0100
1000
0000
0100
0001
1000
0000
0100
0010
0001
0000
0010
0100
,
0011
0011
1100
0110
0011
1100
0110
0011
,
1100
0100
0010
0001
1000
0100
0010
0100
0010
0100
1000
0010
0100
0001
0100
0010
,
1000
0100
1000
0010
1000
0001
0100
0010
1000
0100
0010
0100
0220
0000
0330
0000
,
2010
0000
0000
0000
0010
0000
0000
0000
0100
0000
0000
0000
0001
3000
0000
0000
,
0220
0000
0000
0330
,
1000
0000
0100
0000
0010
0000
0001
0000
0000
1001
0000
0001
1000
0000
0010
0000
,
0010
0000
0110
0000
1000
0000
1100
0000
0000
0001
0000
1000
0001
0000
0001
0000
,
1000
0000
0101
0000
1001
0000
0011
0000
0000
0011
0000
1000
0100
0000
0010
0000
,
1100
0000
0100
0000
0011
0000
1100
0000
1000
0100
0000
0100
0001
0000
0110
0000
,
1001
0000
0110
0000
1001
0000
0011
0000
0000
0101
0000
0100
0001
0000
0010
0100
,
1000
0000
0011
0000
0100
0000
1001
0000
0000
1001
0000
0001
0100
0000
0001
0100
,
1000
0000
0110
0000
1100
0000
0011
0000
0000
1001
0000
0010
0100
0000
0100
0001
,
1000
0100
1000
0100
0010
0100
0010
0001
0010
0001
0010
0100
0010
0100
0010
0000
,
1100
0000
0110
0000
0011
0000
1100
0000
1100
0000
0100
0010
0000
1000
0100
0010
,
0100
0110
1100
0011
0011
1100
1100
0110
,
1001
0000
1100
0000
0110
0000
0011
0000
1100
0000
0010
1000
0000
0001
0100
0010
,
0100
0000
0110
0000
1001
0000
0110
0000
1000
0100
0010
0001
0000
0010
0100
0000
,
1100
0000
0110
0000
0011
0000
1100
0000
0110
0000
0010
0100
0000
1000
0100
0010
,
0001
0000
0110
0000
0011
0000
1100
0000
0110
0000
1000
0100
0000
0100
0010
0100
,
1000
0000
0011
0000
1100
0000
0110
0000
0011
0000
1000
0100
0000
0001
1000
0010
,
1000
0001
0100
0000
1000
0100
0011
0000
1000
0100
0010
0100
1000
0100
0010
0000
,
1000
0100
1000
0000
0100
0010
0001
0000
0010
0100
1000
0100
0000
0010
0001
0000
,
1000
0100
0010
0000
0010
0100
0001
0000
1000
0100
0010
0001
0000
0010
0001
0000
,
1000
0100
0010
0000
0001
0010
0100
0000
1000
0100
1000
0010
0000
0010
1000
0000
,
1000
0100
0010
0000
0001
0010
0100
0000
1000
0100
0010
1000
0000
0010
0100
0000
,
1000
0100
1000
0100
0010
0001
0010
0001
1000
0010
1000
0010
0000
1000
0100
0000
,
1000
0100
0010
0001
1000
0100
0010
0001
0010
0100
0010
0100
0000
0001
0100
0000
,
0010
1000
0001
0100
0001
0010
0100
1000
0001
1000
0010
1000
0000
0100
1000
0000
,
0010
1000
0001
0100
0010
1000
0001
1000
0100
0010
0001
0100
0001
1000
0010
0100
,
1001
0010
1000
0001
0010
0100
0010
0001
1000
0100
1000
0001
1000
0010
0100
0001
,
0010
0100
1000
0100
1000
0001
0010
0100
1000
0010
0100
0010
0100
0010
1000
0000
,
1000
0100
0010
0100
1000
0001
1000
0010
0100
0001
0100
0001
1000
0100
0001
1000
,
0110
0000
0001
0100
0000
1000
0010
0000
1000
0010
0000
0100
0001
0000
0110
0000
,
1000
0100
0010
0001
1000
0100
0010
0001
0010
0100
1000
0100
0001
0010
1000
0100
,
0010
0100
0001
0010
0100
1000
0100
0010
0001
0100
0010
0100
0010
1000
0100
1000
,
0100
0010
0001
0010
0001
1000
0100
1000
0100
0010
0001
0100
1000
0100
0001
1000
,
0002
0000
0100
0000
0100
0000
0103
0100
,
0012
0000
1000
0000
1000
0000
0110
0003
,
2100
0000
0010
0000
0010
0000
0100
0100
,
3210
0000
0010
0000
0001
0000
0011
0300
,
0210
0000
0000
0000
0302
0000
0000
0000
2103
0000
0000
0000
3100
0000
0100
0010
,
0001
0000
0100
0010
1000
0000
0001
0100
0010
0000
1000
0100
1000
0000
0010
0001
,
1000
1010
0001
0110
1000
0110
0001
0110
,
1000
0100
1000
0100
0010
0100
0010
0001
0010
0001
1000
0100
0010
0001
0010
0100
,
0220
0000
0000
0000
0000
0000
0000
0000
0000
0000
0000
0000
0000
0000
0000
0330
,
1000
0000
0100
0000
0001
0000
0100
0000
1000
0000
0010
0001
0000
1000
0100
1000
,
0100
0010
1000
0100
0001
0100
0011
1100
,
0110
0000
1000
0000
0010
0000
0001
0000
1000
0000
0100
0010
0000
0100
1000
0100
,
0001
0000
0100
0000
0001
0000
1000
0000
0100
0010
0001
1000
0000
0100
0010
0000
,
1000
0000
0100
0000
0010
0000
1000
0000
0100
0010
0100
1000
0000
0010
0001
0000
,
1100
0000
0011
0000
0110
0000
1100
0000
0010
0100
0010
1000
0000
0100
0010
0000
,
1000
0000
0100
0000
0001
0000
0010
0000
0100
0001
0010
0100
0000
1000
0100
0000
,
1100
0000
0000
0000
0110
0000
0000
0000
0011
0000
0000
0000
1100
0000
0000
0000
1001
0000
0000
0000
0000
0000
0000
0000
1000
0100
0010
0001
1000
0100
0010
0001
,
0100
0010
0100
0010
1000
0100
0010
0001
0010
0100
1000
0010
0100
0001
0100
0001
,
0010
0001
1000
0100
0010
0100
1000
0010
0001
0010
1000
0001
0100
0010
0100
0001
,
0010
0100
0001
0010
1000
0001
0010
0100
1000
0100
0010
0100
1000
0100
0010
0001
,
1100
0010
1000
0010
0100
0001
0100
0010
1000
0001
0010
0100
0010
0001
0100
0001
,
0010
1000
0100
1000
0010
0100
0001
0010
0100
1000
0100
0010
0001
0100
0010
0010
,
0100
1000
0100
0010
0100
0001
1000
0100
0010
0100
1000
0001
0010
0100
0010
0010
,
0001
0100
0001
0010
0100
1000
0001
0010
0100
1000
0100
0010
0001
1000
0010
0100
,
1001
0100
0010
0001
1100
0010
0001
0100
0011
1000
0010
1000
0001
0100
0001
0110
,
2002
0000
0000
0000
0000
0000
0000
0000
0000
0000
0000
0000
0000
0000
0000
3003
;
